The Time Machine 2002 720p Esub BRRip Dual Audio Hindi English GOPISAHI

Video
ID                             : 1
Format                         : AVC
Codec ID                       : V_MPEG4/ISO/AVC
Duration                       : 1 h 36 min
Bit rate                       : 839 kb/s
Width                          : 1 280 pixels
Height                         : 536 pixels
Display aspect ratio           : 2.40:1
Frame rate mode                : Constant
Frame rate                     : 23.976 (24000/1001) FPS
Stream size                    : 577 MiB (87%)
Writing library                : x264 core 115 r1995 c1e60b9

Download Here                   Watch Now

Audio #1
Format                         : AAC
Duration                       : 1 h 36 min
Bit rate                       : 31.8 kb/s
Channel(s)                     : 2 channels
Channel positions              : Front: L R
Sampling rate                  : 48.0 kHz / 24.0 kHz
Frame rate                     : 23.438 FPS (1024 SPF)
Stream size                    : 21.9 MiB (3%)
Language                       : English

Audio #2
Format                         : AAC
Duration                       : 1 h 36 min
Bit rate                       : 93.6 kb/s
Channel(s)                     : 6 channels
Channel positions              : Front: L C R, Side: L R, LFE
Sampling rate                  : 44.1 kHz
Frame rate                     : 43.066 FPS (1024 SPF)
Stream size                    : 64.4 MiB (10%)
Language                       : Hindi

Text
ID                             : 3
Duration                       : 1 h 33 min
Bit rate                       : 29 b/s
Count of elements              : 606
Stream size                    : 20.2 KiB (0%)
Language                       : English
http://i.imgur.com/jADKICo.jpg
http://i.imgur.com/DygwUTp.jpg

http://i.imgur.com/6RWv3oO.jpg

G-DRIVE LINK#2

googledrive#5

Recent search terms:

Loading...